Cello Flac






com is a completely virtual record label and a secure online store open 7 days a week, 365 days a year. Artist: Pierre Fournier Title Of Album: Aristocrat of the Cello Year Of Release: 2005 Label: Deutsche Grammophon Genre: Classical Quality: FLAC (*tracks, cover) Time: 6 CDs, 07:06:53 min. On Elgar’s Cello Concerto, Bailey collaborates with Music Director Krzysztof Urbanski, who leads the Indianapolis Symphony Orchestra. PDP-CH - London Symphony Orchestra - Landon Ronald - Pau Casals, Cello - Cello Concerto in B-flat major, G482 - Luigi Boccherini - Hmv-db3058-2ea4161. Using BitTorrent is legal, downloading copyrighted material. Xenakis, Kodály & Others Duos for Violin & Cello FLAC. 3 GB: 0: 0: Bach - The 6 Unaccompanied Cello Suites (Yo-Yo Ma) (2010 [1983]) done comment 1: Music: 9 months ago: 537 MB: 0: 0: J S Bach, Six Suites for Unaccompanied. Torrent hash: 5f35ba96901f0a2ea25b98fcfac287. 104 hasn’t been recorded for the yellow label since 2002 (Mischa Maisky with Mehta and Berliner Philharmoniker). ipx-502 75. Bass, Cello – Dave Holland Percussion, Bells – Barry Altschul Trumpet, Flugelhorn – Kenny Wheeler 3. 10 When They Die 11. tikb-060 66. it/tpgtour TPG APPAREL: http://smarturl. No matter if you’re a fan of Classical Music, Blues, Jazz, Metal, or any other genre, here you will find the finest tunes gathered by our vast community. 6 in D (3) Sonata for viola and harpsichord no. Dvorak - Cello & Piano Concerto - CPO, Talich [1952] FLAC 04 Concerto for Piano and Orchestra in G minor, op. 4 (2008/2016) [e-Onkyo DSF DSD64/2. 02KB) /Stems1/elgtt-dry5th. flac AccurateRip: Accurate (confidence 2) [Pass 1] CRC32: F3110605 AccurateRip CRC: 8DF19EFB (NEW) [DiscID: 021-003587b9-033c1970-40117b15-1] Track 2: Ripped LBA 10620 to 31335 (4:36) in 0:17. 0 (converted with foobar2000 to tracks) 24bit/96 kHz | Scans + PDF Booklet | 1,57 GB Salvatore Accardo is an outstanding Italian violin virtuoso, best known as a master of the works of Niccolí Paganini, but equally accomplished across a wide variety of repertory for the instrument. 320kbps MP3 + 320kbps M4A + PDF. Bach Cello Suites Flac Torrent Bach - Cello Suites (2CD) (Maurice Gendron) [FLAC+cue], One of the biggest torrents indexer with more then 8000000 torrent files listed. Traditional: The Parting Glass 26. Nix Four songs from the end of a long winter: - Icefloe - Forte - Possible - Nix. Performing Bach's iconic suites has become a rite of passage for many cellists, but Tunnicliffe's extensive experience and virtuosity allowed him to create a recording that highlights the distinct personality and individuality of each movement. 91MB) /Stems1/tubular bells. Insulated double walled vacuum flask is designed for maximum temperature retention that keeps the drinks hot/cold without altering their temperatures for prolonged period of time. Customers and visitors can download classical music in high quality FLAC or MP3 and find out more about classical music. 04 It's A Lie 5. Flower Duet 5. This version has individual tracks as opposed to the original one-track version. This free sample download is 2nd Mov’t – Shostakovich Cello Sonata from download “Shostakovich Cello Sonata”. 1 in G Major, BWV 1007: I. Bed Of Roses 29. 1 kHz / 24-bit AIFF, FLAC audio formats,. Download club dance music MP3 and FLAC, Dance compilation, Daily updates club music, Best mixes and sets, Radio show. it/tpgtour TPG APPAREL: http://smarturl. 2 in B minor, op. Staendchen 4. 67M F-12 Alto Saxophone, Soprano Saxophone – Anthony Braxton Bass, Cello – Dave Holland Percussion, Bells – Barry Altschul Trumpet, Flugelhorn – Kenny Wheeler 4. 11 Wall Of Death (proto version) 12. Dvořák‘s Cello Concerto op. 2 in B minor, op. flac From Wikimedia Commons, the free media repository. Torrent hash: 5f35ba96901f0a2ea25b98fcfac287. 12 Maggie's Dead (08/04/2013 version) 13. 12 GB TRACKLIST. 92 Gb Tracklist: 01. Audio: FLAC 16 bit / 44. Allermande - 2:45 3. Cello Multitracks by Gabriel Prokofiev, released 23 May 2011 1. Includes unlimited streaming of Crackle - Six improvisations for Cello and Double Bass via the free Bandcamp app, plus high-quality download in MP3, FLAC and more. Music with tags Cello / Music category provides you with a range of music albums, which you can easily download by clicking on the links at the end of each post. 12 GB) Violin Sonata No. Harmageddon (Eicca Toppinen) - 4:56. 46KB) /Stems1/whistle5th. The second cello concerto on the album is the Cello Concerto No. 08 Bad Girl 9. Bach - Cello Suites (2CD) (Maurice Gendron) [FLAC] could be available for direct download Spónsored Link google. 12 GB TRACKLIST. Arias for Cello & Piano by Brooklyn Classical, released 08 November 2019 1. 4 (2008/2016) [e-Onkyo DSF DSD64/2. Possible 4. This free sample download is 2nd Mov’t – Shostakovich Cello Sonata from download “Shostakovich Cello Sonata”. HEAVY FREAK CELLO by Mr Marcaille, released 06 June 2013 1. Total download size: 522MB Total play length: 48:04. This free sample is a 1st generation digital transfers from the 15ips analogue master tape – available in 24/192kHz FLAC format. 06 GB WebSite: Album Preview. Bass, Cello – Dave Holland Percussion, Bells – Barry Altschul Trumpet, Flugelhorn – Kenny Wheeler 3. Molto allegro (Excerpt). Filename:. Bach - Cello Suites (P. Switch at the 2011 BBC Proms, under the baton of Vladimir Jurowski. Mischa Maisky - Bach The Cello Suites (2007) [DVD9 NTSC] {2DVD}. IBW-455Z 61. Audio: FLAC 16 bit / 44. hunta 834 67. Born in Washington, D. Hi-Res FLAC (lossless, 96 kHz, 24 bit) $15. 5 in C minor (2) Cello Suite No. Cello Concerto in D Minor, RV 405/Adagio 03. 2 in D (1). Gabriel Prokofiev’s famous first Concerto for Turntables reached a global audience when performed by Mr. This release includes a digital booklet If IKEA were to make a cello, this would be it…Sow how does it sound? In. 66MB) /Stems1/strings. 0 (converted with foobar2000 to tracks) 24bit/96 kHz | Basic Scans included | 1,11 GB At a young age, cellist Jacqueline du Pre achieved mainstream popularity. com - Available in 96 kHz / 24-bit AIFF, FLAC high resolution audio…. 2 in D minor (1) Cello Suite No. The Cello Concerto was in many ways the composer's swansong… The beautifully slow movement is deeply searching and draws on an Elgarian quality, a poignant nobility. The multi-prize winning soloist is also a well-established conductor, in his native Russia as well as worldwide. Possible 4. Cover art and liner notes included. ships out within 1 day Buy Compact Disc £10 GBP or more. VIIb:1 by Franz Joseph Haydn (1732-1809). for Cello & 2 Pianos)05. Fiorenza: Cello Concerto in F Major-3. melody marks 63. He returned to Wigmore Hall in May 2012 to record Bach’s cello suites, true masterworks regarded as the pinnacle of the repertoire for the instrument. Christopher Gunning returns with recordings of his Violin Concerto, Cello Concerto and Birdflight. In Extremo – Kompass zur Sonne (Deluxe Edition) (2020) [FLAC 24bit/44,1kHz] Indigo Girls – Look Long (2020) [FLAC 24bit/44,1kHz] Inbal Segev, London Philharmonic Orchestra & Marin Alsop – Anna Clyne: DANCE – Edward Elgar: Cello Concerto (2020) [FLAC 24bit/48kHz] Inon Barnatan – Beethoven – Piano Concertos, Vol. 1 in C major, Hob. 35, TrV 184 (Live) (2020) [24bit Hi-Res] Zugezogen Maskulin – 10 Jahre Abfuck (2020) [24bit Hi-Res] Zoey Adams – One More Jazz Thing (2020) [24bit Hi-Res] View all. This page lists all recordings of Cello Concerto No. Dvorak - Cello & Piano Concerto - CPO, Talich [1952] FLAC 04 Concerto for Piano and Orchestra in G minor, op. Quality: FLAC 24 bit / 96 kHz (Tracks) + FLAC 16 bit / 44. SHKD-739 72. This version has individual tracks as opposed to the original one-track version. Haydn Cello Concertos (Jian Wang, cello) [DG 1999] FLAC. Bach - Cello Suites (P. 02KB) /Stems1/elgtt-dry5th. LosslessClub. 320kbps MP3 + 320kbps M4A + PDF. Scherzo-Tarantella 7. Seven Summers by Shaun Martin, released 07 July 2015 1. Filename:. /Stems1/cello. Cello Riot by Cello Riot, released 24 May 2017 1. In Extremo – Kompass zur Sonne (Deluxe Edition) (2020) [FLAC 24bit/44,1kHz] Indigo Girls – Look Long (2020) [FLAC 24bit/44,1kHz] Inbal Segev, London Philharmonic Orchestra & Marin Alsop – Anna Clyne: DANCE – Edward Elgar: Cello Concerto (2020) [FLAC 24bit/48kHz] Inon Barnatan – Beethoven – Piano Concertos, Vol. Prelude - 0:00 2. 1 Max Rostal – violin, Colin Horsley – piano DELIUS – Sonata for Cello and Piano (1916) Caprice. 6 Cello Suite, No. fi/2nv7mvw. 92 Gb Tracklist: 01. He returned to Wigmore Hall in May 2012 to record Bach’s cello suites, true masterworks regarded as the pinnacle of the repertoire for the instrument. Jacqueline du Pré, Chicago SO, Daniel Barenboim - Dvořák: Cello Concerto & Silent Woods (1971) [Japan 2011] PS3 Rip | SACD ISO | DSD64 2. 05 Destroy 6. Jupiter War 58. Vedro con Mio Diletto 9. Arias for Cello & Piano by Brooklyn Classical, released 08 November 2019 1. ships out within 4 days Buy Compact Disc $20 AUD or more. cue) Bitrate: Lossless Time: 04:08:45 Size: 1. The Prayer 30. 92 Gb Tracklist: 01. 66MB) /Stems1/strings. Dvorak - Cello & Piano Concerto - CPO, Talich [1952] FLAC 04 Concerto for Piano and Orchestra in G minor, op. com - Available in 96 kHz / 24-bit AIFF, FLAC high resolution audio…. /Stems1/cello. ♫ Buy the MP3 album on the Official Halidon Music Store: http://bit. Liebesbot 3. 1 Max Rostal – violin, Colin Horsley – piano DELIUS – Sonata for Cello and Piano (1916) Caprice. Sarabande 27. Gigue - 17:38 Unitel 1993. Music with tags Cello / Music category provides you with a range of music albums, which you can easily download by clicking on the links at the end of each post. Allegro agitato. Alison's Song Texture, layers of sound, created to capture images and speak in emotions. Cello Multitracks by Gabriel Prokofiev, released 23 May 2011 1. flac AccurateRip: Accurate (confidence 2) [Pass 1] CRC32: F3110605 AccurateRip CRC: 8DF19EFB (NEW) [DiscID: 021-003587b9-033c1970-40117b15-1] Track 2: Ripped LBA 10620 to 31335 (4:36) in 0:17. Format-FLAC (tracks) Quality-Lossless Sample Rate-44100Hz/16Bit Artist- Apocalyptica Album- Amplified - A Decade of Reinventing the Cello Release-2006 Average Bitrate-868 | 951 kb/s Av/Dynamic Range-07 | 06 Duration-01:07:50 | 00:33:28 File Size-677. Get our albums: https://smarturl. 1 in G major (2) Cello Suite No. 12 GB) Violin Sonata No. Alexander Warenberg Alexander Warenberg (1998) was born in Voorburg, The Netherlands, into a family of professional musicians. melody marks 63. Leonard Rose (July 27, 1918 November 16, 1984) is considered one of the greatest American cellists of the 20th century. 06 GB WebSite: Album Preview. Dvořák‘s Cello Concerto op. Have Your Chance at Love (feat. Join us today for the ultimate listening experience!. 82MHz + FLAC 24bit/96kHz]. He began playing the cello at the age of five and had his first lessons from his uncle. 13 When They Die (soundtrack version) CD edition from the 2013. HEAVY FREAK CELLO by Mr Marcaille, released 06 June 2013 1. Love, Don't Let Me Down (feat. Nix Four songs from the end of a long winter: - Icefloe - Forte - Possible - Nix. Demonstrating his great technical. 11MB) /Stems1/whistle. 12 Maggie's Dead (08/04/2013 version) 13. Maestro Daniel Barenboim and the Staatskapelle Berlin accompany Kian Soltani in the concerto, while for the other pieces (three of which have been arranged by Kian Soltani himself) he is joined by. Bowie Cello Symphonic: Blackstar is a soaring new version of David Bowie’s entire last album Blackstar reimagined for solo cello and orchestra. Scherzo-Tarantella 7. Preview Bach: Cello Suites for Guitar. Direct download via magnet link. Propelled into international fame in 2011 after their version of Michael Jackson’s “Smooth Criminal” went viral with 20 million-plus YouTube views, Croatian cellists Luka Sulic and Stjepan Hauser return to their rock roots on their third album, Celloverse. Prelude - 0:00 2. Beethoven: Piano Concerto No. The Cello Concerto is quite different. 3 GB: 0: 0: Bach - The 6 Unaccompanied Cello Suites (Yo-Yo Ma) (2010 [1983]) done comment 1: Music: 9 months ago: 537 MB: 0: 0: J S Bach, Six Suites for Unaccompanied. Torrent hash: 5f35ba96901f0a2ea25b98fcfac287. 1 in C major, Hob. Le cygne (Arr. Mischa Maisky - Bach The Cello Suites (2007) [DVD9 NTSC] {2DVD}. flac 61 MB. Yo-Yo Ma - Song Without. Love, Don't Let Me Down (feat. 32MB) /Stems1/elgtr-dry. One Big Party 3. 92 Gb Tracklist: 01. On Elgar’s Cello Concerto, Bailey collaborates with Music Director Krzysztof Urbanski, who leads the Indianapolis Symphony Orchestra. Leonard Rose (July 27, 1918 November 16, 1984) is considered one of the greatest American cellists of the 20th century. com | Digital booklet This ambitious project consists of a recording of the complete music for violin and orchestra and cello and orchestra by Camille Saint-Saëns. Demonstrating his great technical. ipx-502 75. Bass, Cello – Dave Holland Percussion, Bells – Barry Altschul Trumpet, Flugelhorn – Kenny Wheeler 3. 1Pondo 092415-159 65. Cello Suite No. Bach: Das Wohltemperierte Klavier (The Well-Tempered Clavier), Volume 2 Released: 2020 Style: Classical RAR Size: 3. The Cello Concerto is quite different. 11MB) /Stems1/whistle. Born in Washington, D. 11 Wall Of Death (proto version) 12. Bach - Cello Suites (2CD) (Maurice Gendron) [FLAC] torrent download location Download Direct J. Cello Multitracks by Gabriel Prokofiev, released 23 May 2011 1. ly/2Fl9K5L 🎧 Listen to "The Best of Classical Music" on Spotify: http://spoti. 12 GB) Violin Sonata No. Martin Rummel – Popper: Complete Cello Concertos (2019) FLAC (tracks) 24-bit/96 kHz | Time – 01:18:54 minutes | 1,29 GB | Genre: Classical Studio Masters, Official Digital Download | D…. Audio: FLAC 16 bit / 44. com/playlist?list=PLCW0kd0ry9dzaJNrTd5gBWRfXgVEMZnhw Music to fall asleep: https://www. Not composed until 2011, Gunning's Violin Concerto was composed after inspiration whilst the composer was out hiking in Wales. Queen of the Night 7. 320kbps MP3 + 320kbps M4A + PDF. Download Maurice Gendron - Charm and Cello (2019) Mp3 / Flac or any other file from Music category. 10 When They Die 11. 10 When They Die 11. com - торрент трекер c лучшей музыкой в lossless качестве. MDYD-168 69. The Prayer 30. 1 in G, BWV 1007 around 1720, though the work was not published until 1825. 3 in C (4) Cello Suite No. Many composers neglected this instrument, therefore it is difficult to attain a collection such as this. flac From Wikimedia Commons, the free media repository. Torrent tracker with best lossless music. Hi-Res FLAC (lossless, 96 kHz, 24 bit) $15. Bach - Cello Suites (P. 24bit, 96kHz FLAC file (1. Join us today for the ultimate listening experience!. 21 GB Tracklist:. However, despite this positive venture. Jean-Guihen Queyras – Vivaldi: Sonatas for Cello & Basso Continuo (2018) [FLAC 24/88,2] September 2, 2020 admin Hi-Res Digital Download Antonio Vivaldi – La Stravaganza, Op. 2 (2020) [FLAC 24bit. com/playlist?list=PLCW0kd0ry9dzaJNrTd5gBWRfXgVEMZnhw Music to fall asleep: https://www. 12 Maggie's Dead (08/04/2013 version) 13. Bach Cello Suites Flac Torrent Rating: 5,0/10 1874 reviews Download Pablo Casals - The 6 Cello Suites (2003) (Opus Kura) - [FLAC] torrent from music category on Isohunt. Cello Suite No. 0 GB platico 6 August 2020 21:24. Time to Say Goodbye (Con Te Partiro) 4. On Elgar’s Cello Concerto, Bailey collaborates with Music Director Krzysztof Urbanski, who leads the Indianapolis Symphony Orchestra. 0 (converted with foobar2000 to tracks) 24bit/96 kHz | Scans + PDF Booklet | 1,57 GB Salvatore Accardo is an outstanding Italian violin virtuoso, best known as a master of the works of Niccolí Paganini, but equally accomplished across a wide variety of repertory for the instrument. dpmi-044 57. This free sample download is 2nd Mov’t – Shostakovich Cello Sonata from download “Shostakovich Cello Sonata”. This version has individual tracks as opposed to the original one-track version. Customers and visitors can download classical music in high quality FLAC or MP3 and find out more about classical music. 1 Max Rostal – violin, Colin Horsley – piano DELIUS – Sonata for Cello and Piano (1916) Caprice. 4 (2008/2016) [e-Onkyo DSF DSD64/2. Cello Concerto in C Minor, RV 401/Allegro ma non molto 07. Download Maurice Gendron - Charm and Cello (2019) Mp3 / Flac or any other file from Music category. Jean-Guihen Queyras – Vivaldi: Sonatas for Cello & Basso Continuo (2018) [FLAC 24/88,2] September 2, 2020 admin Hi-Res Digital Download Antonio Vivaldi – La Stravaganza, Op. Using BitTorrent is legal, downloading copyrighted material. Lossless FLAC file. The second cello concerto on the album is the Cello Concerto No. Haydn: Cello Concerto In C Major, Hob. Features Calexico's Joey Burns on cello & John Convertino on percussion. 24bit, 96kHz FLAC file (1. Dvorak - Cello & Piano Concerto - CPO, Talich [1952] FLAC 04 Concerto for Piano and Orchestra in G minor, op. 92 Gb Tracklist: 01. 02 It's Time To Freak 3. 03 Free My Line 4. MA Cello Suites inspired by Bach FLAC\01 Suite No. Signed to Sony Masterworks since 2011, they have released five albums and play instrumental arrangements of well-known pop and rock songs as well as classical and film music. Tuff Strum 5. This free sample is a 1st generation digital transfers from the 15ips analogue master tape – available in 24/192kHz FLAC format. com is a completely virtual record label and a secure online store open 7 days a week, 365 days a year. 2004 Label: is this music? - itm009 • Format: CD Compilation plastic sleeve with flap • Country: UK • Genre: Rock • Style: Alternative Rock, Indie Rock. (San Jose, CA) See All My Reviews " Excellent presetation of the various cello pieces. The Prayer 30. 2 in B-Flat Major, Op. Cellophony Vibrez, released 10 February 2014 1. ♫ BUY the MP3 album "Piano & Cello" on the Official Halidon Music Store: http://bit. 20MB) /Stems1/glimmer guit. Harmageddon (Eicca Toppinen) - 4:56. Haydn Cello Concertos (Jian Wang, cello) [DG 1999] FLAC. Alison's Song Texture, layers of sound, created to capture images and speak in emotions. Zuill Bailey – Walton: Cello Concerto – Strauss: Don Quixote, Op. La Lugubre Gondola 6. , Rose took lessons from Walter Grossman, Frank Miller and Felix Salmond and after completing his studies at Philadelphia's Curtis Institute of Music at age 20, he joined Arturo Toscanini's NBC Symphony Orchestra, and almost immediately became. For fans of the cello, this 2009 six-disc set contains the crème-de-la-crème of the instrument's repertoire and performers. Hi-Res FLAC (lossless, 96 kHz, 24 Here at last is a recording to persuade sceptics that Prokofiev's Cello Concerto is not just an interesting but rather drab. Features Calexico's Joey Burns on cello & John Convertino on percussion. 02KB) /Stems1/elgtt-dry5th. 1 in C major, Hob. Christopher Gunning returns with recordings of his Violin Concerto, Cello Concerto and Birdflight. Steven Isserlis - Sicilienne, Op. Liebesleid04. Night Dance (Alternate Version) 3. Bach Cello Suites Flac Torrent Bach - Cello Suites (2CD) (Maurice Gendron) [FLAC+cue], One of the biggest torrents indexer with more then 8000000 torrent files listed. Join us today for the ultimate listening experience!. Yo-Yo Mas second recording of Bachs Cello Suites, released in 1997, came about after he heard a quote by Albert Schweitzer describing Bach as a pictorial compos YO-YO MA Cello Suites inspired by Bach FLAC. Audio: FLAC 16 bit / 44. 24 Gb + 993 Mb. O Mio Babbino Caro 3. Cello Concerto in D Minor, RV 405/Allegro 02. Performing regularly throughout the world as a soloist, chamber musician, recording artist and teacher, British cellist Colin Carr is a frequent guest at the world’s leading concert halls and festivals. Keith Jarrett - J. Jan Vogler recorded the Cello Concerto No. (San Jose, CA) See All My Reviews " Excellent presetation of the various cello pieces. Arias for Cello & Piano by Brooklyn Classical, released 08 November 2019 1. 12 Maggie's Dead (08/04/2013 version) 13. com | Digital booklet This ambitious project consists of a recording of the complete music for violin and orchestra and cello and orchestra by Camille Saint-Saëns. siro 1903 60. Customers and visitors can download classical music in high quality FLAC or MP3 and find out more about classical music. This is a re-recording of George Martin's score for Strawberry Fields Forever; we used The Beatles' original rhythm track as a guide. ♫ Buy the MP3 album on the Official Halidon Music Store: http://bit. Torrent hash: 5f35ba96901f0a2ea25b98fcfac287. The aim of the piece is demonstrate the main DJing techniques, with each. Christopher Gunning returns with recordings of his Violin Concerto, Cello Concerto and Birdflight. 6 MB Xenakis, Kodály & Others Duos for Violin & Cello Hi-Res. NIkki Ross) 6. Nessun Dorma 2. Una Furtiva Lagrima 8. flac From Wikimedia Commons, the free media repository. Audio: FLAC 16 bit / 44. fi/2nv7mvw. 1 kHz / 24-bit AIFF, FLAC audio formats,. 6 MB Genre-Metal Cover Size-1200x1200px Tracklist: CD 1 01 - Enter Sandman 02 - Harmageddon. 02 It's Time To Freak 3. 82MHz + FLAC 24bit/96kHz]. This was the final work completed by the composer before his death and Zuill’s interpretation captures the subtlety and drama of the piece. 04 It's A Lie 5. Vedro con Mio Diletto 9. Adam Hurst The Visitor ~ Unreleased Work 2005-2018, released 29 March 2020 1. 1 by Wojciech Fudala; Michał Rot in high-resolution audio at ProStudioMasters. Cello Concerto in C Minor, RV 401/Adagio 06. Artist: Isang Enders Title: Bach: Cello Suites Year Of Release: 2014 Label: Berlin Classics Genre: Classical Quality: mp3 320 kbps / flac lossless / flac 24bits - 96. Suite for Cello Unaccompanied No. Yo-Yo Mas second recording of Bachs Cello Suites, released in 1997, came about after he heard a quote by Albert Schweitzer describing Bach as a pictorial compos YO-YO MA Cello Suites inspired by Bach FLAC. PDP-CH - London Symphony Orchestra - Landon Ronald - Pau Casals, Cello - Cello Concerto in B-flat major, G482 - Luigi Boccherini - Hmv-db3058-2ea4161. This version has individual tracks as opposed to the original one-track version. Xenakis, Kodály & Others Duos for Violin & Cello FLAC. hunta 834 67. Download Weinberg: Cello Sonatas & Berceuse, Op. Artist: Isang Enders Title: Bach: Cello Suites Year Of Release: 2014 Label: Berlin Classics Genre: Classical Quality: mp3 320 kbps / flac lossless / flac 24bits - 96. 1 by Wojciech Fudala; Michał Rot in high-resolution audio at ProStudioMasters. Classic includes some of the most beloved classical melodies ever written, each a personal, longtime favorite of HAUSER he’s carefully curated and rearranged for the cello. com - Available in 96 kHz / 24-bit AIFF, FLAC high resolution audio…. (3CD, FLAC) Dotzauer Friedrich (1783-1860) - Flute and Oboe Quartets - Ensemble. Torrent hash: 5f35ba96901f0a2ea25b98fcfac287. Cello Multitracks by Gabriel Prokofiev, released 23 May 2011 1. This version has individual tracks as opposed to the original one-track version. Includes unlimited streaming of The Naked Cello via the free Bandcamp app, plus high-quality download in MP3, FLAC and more. [Hi-Res] Aleksander Debicz & Marcin Zdunik - Bach Stories (2017) FLAC 24-96 [Hi-Res] Rachel Podger - Bach: Cello Suites arranged for violin (2019) FLAC 24-192; Yehudi Menuhin Plays 9 Violin Concertos (Beethoven, Bach, Mendelssohn, Bruch, Mozart, Brahms) [5 LP's] (1958-1966) [Hi-Res] Hopkinson Smith - Bach: Suites Nos. Mdbk-092 73. Yo-Yo Ma - 3 Old Viennese Dances: II. 4 (2008/2016) [e-Onkyo DSF DSD64/2. 11 Wall Of Death (proto version) 12. 32MB) /Stems1/elgtr-dry. ly/2Fl9K5L 🎧 Listen to "The Best of Classical Music" on Spotify: http://spoti. These pieces present the highest mountain to climb for any cellist, and one of the most transcendent and rewarding experiences for listeners alike. This free sample download is 2nd Mov’t – Shostakovich Cello Sonata from download “Shostakovich Cello Sonata”. La Lugubre Gondola 6. cello flac 56. Not composed until 2011, Gunning's Violin Concerto was composed after inspiration whilst the composer was out hiking in Wales. 03 Free My Line 4. 2Cellos is a Croatian cello duo, consisting of classically trained Luka Sulic and Stjepan Hauser. 0 > 1-bit/2. 59KB) /Stems1/fiddle. Mornings 2. dpmi-044 57. This is a re-recording of George Martin's score for Strawberry Fields Forever; we used The Beatles' original rhythm track as a guide. 3 in C (4) Cello Suite No. Jupiter War 58. Cellophony Vibrez, released 10 February 2014 1. VIIb:1 by Franz Joseph Haydn (1732-1809). Cello Concerto in C Minor, RV 401/Allegro non molto 05. The Cello Concerto was in many ways the composer's swansong… The beautifully slow movement is deeply searching and draws on an Elgarian quality, a poignant nobility. 5 in C minor (2) Cello Suite No. Cello Concerto in C Minor, RV 401/Allegro ma non molto 07. Propelled into international fame in 2011 after their version of Michael Jackson’s “Smooth Criminal” went viral with 20 million-plus YouTube views, Croatian cellists Luka Sulic and Stjepan Hauser return to their rock roots on their third album, Celloverse. Adam Hurst The Visitor ~ Unreleased Work 2005-2018, released 29 March 2020 1. Genere:Cello Metal Etichetta: Mercury/Universal N° Dischi:1 Tracce: 11 Formato: Flac Durata: 46 min : 41 s Fonte: Cd Originale 1. Offenbach’s ambitious Grand Concerto in G major culminates in military fireworks, while Friedrich Gulda’s Concerto for Cello, Wind Orchestra and Band – written 130 years later – is a dazzling stylistic kaleidoscope. Float Dance 4. Love, Don't Let Me Down (feat. He began playing the cello at the age of five and had his first lessons from his uncle. Have Your Chance at Love (feat. The Prayer 30. 0 > 1-bit/2. ships out within 1 day Buy Compact Disc £10 GBP or more. Customers and visitors can download classical music in high quality FLAC or MP3 and find out more about classical music. Suite for Cello Unaccompanied No. Nessun Dorma 2. Bach - Cello Suites (2CD) (Maurice Gendron) [FLAC] torrent download location Download Direct J. Tuff Strum 5. Audio: FLAC 16 bit / 44. it/TPG_ALBUMS WE'RE ON TOUR! https://smarturl. 24 Gb + 993 Mb. Torrent hash: 5f35ba96901f0a2ea25b98fcfac287. The violin is supposed to represent ducking and weaving, rather like the insects and animals found in the Welsh hills and valleys. Flower Duet 5. However, despite this positive venture. Fiorenza: Cello Concerto in F Major-3. cue) Bitrate: Lossless Time: 04:08:45 Size: 1. Cello Concerto in C Minor, RV 401/Adagio 06. The second cello concerto on the album is the Cello Concerto No. On Elgar’s Cello Concerto, Bailey collaborates with Music Director Krzysztof Urbanski, who leads the Indianapolis Symphony Orchestra. Alexander Warenberg Alexander Warenberg (1998) was born in Voorburg, The Netherlands, into a family of professional musicians. This page lists all recordings of Cello Concerto No. 1 kHz / 24-bit AIFF, FLAC audio formats,. Record Label: Christophorus. Many composers neglected this instrument, therefore it is difficult to attain a collection such as this. Insulated double walled vacuum flask is designed for maximum temperature retention that keeps the drinks hot/cold without altering their temperatures for prolonged period of time. Gigue - 17:38 Unitel 1993. Alexander Warenberg Alexander Warenberg (1998) was born in Voorburg, The Netherlands, into a family of professional musicians. These pieces present the highest mountain to climb for any cellist, and one of the most transcendent and rewarding experiences for listeners alike. Bach - Cello Suites (P. for Cello & 2 Pianos)05. ships out within 4 days Buy Compact Disc $20 AUD or more. 4 in E flat major (2) Cello Suite No. 0 (converted with foobar2000 to tracks) 24bit/96 kHz | Basic Scans included | 1,11 GB At a young age, cellist Jacqueline du Pre achieved mainstream popularity. HTTP download also available at fast speeds. Download Dvořák: Cello Concerto by Kian Soltani; Staatskapelle Berlin; Daniel Barenboim in high-resolution audio at ProStudioMasters. Cloud Break 4. Have Your Chance at Love (feat. No matter if you’re a fan of Classical Music, Blues, Jazz, Metal, or any other genre, here you will find the finest tunes gathered by our vast community. Jan Vogler recorded the Cello Concerto No. Maestro Daniel Barenboim and the Staatskapelle Berlin accompany Kian Soltani in the concerto, while for the other pieces (three of which have been arranged by Kian Soltani himself) he is joined by. to 646 MB 2019-05-17 7 1. 6 Cello Suite, No. Vinyl is SOLD OUT. Sarabande - 9:47 5. MDYD-168 69. 2 by Dmitri Shostakovich (1906 1975). Performing Bach's iconic suites has become a rite of passage for many cellists, but Tunnicliffe's extensive experience and virtuosity allowed him to create a recording that highlights the distinct personality and individuality of each movement. 1 in C major, Hob. ♫ Buy the MP3 album on the Official Halidon Music Store: http://bit. 35, TrV 184 (Live) (2020) [24bit Hi-Res] Zugezogen Maskulin – 10 Jahre Abfuck (2020) [24bit Hi-Res] Zoey Adams – One More Jazz Thing (2020) [24bit Hi-Res] View all. Yo-Yo Ma's wistfully introspective — Gramophone Magazine, August 2007 More…. One Big Party 3. Staendchen 4. Jupiter War 58. Nix Four songs from the end of a long winter: - Icefloe - Forte - Possible - Nix. ♫ BUY the MP3 album "Piano & Cello" on the Official Halidon Music Store: http://bit. 5 in C minor (2) Cello Suite No. Dvořák‘s Cello Concerto op. flac From Wikimedia Commons, the free media repository. Xenakis, Kodály & Others Duos for Violin & Cello FLAC. jpg 4,928 × 3,264; 4. Suite for Cello Unaccompanied No. 1, Prelude. (San Jose, CA) See All My Reviews " Excellent presetation of the various cello pieces. One Big Party 3. teaching feeling 62. 1 kHz (Tracks) Artist: Mstislav Rostropovich Title: 26 CD Box Set Published: 2008 Genre: Classical, Cello RAR Size: 6. 2 (2020) [FLAC 24bit. com - Available in 96 kHz / 24-bit AIFF, FLAC high resolution audio formats,. 86 MB Recording with London Symphony Orchestra. 33 (B 63) I. Offenbach’s ambitious Grand Concerto in G major culminates in military fireworks, while Friedrich Gulda’s Concerto for Cello, Wind Orchestra and Band – written 130 years later – is a dazzling stylistic kaleidoscope. Title: Cello & Piano Music By Delius, Bridge & Bach Gloria Johns, cello, Davyd Booth, piano Recording Info: Producer and engineer: Bob Sellman Artists &; Repertoire Coordinator: William Marsh Recorded March 29, 1982 in the Bishop White. 0 (converted with foobar2000 to tracks) 24bit/96 kHz | Scans + PDF Booklet | 1,57 GB Salvatore Accardo is an outstanding Italian violin virtuoso, best known as a master of the works of Niccolí Paganini, but equally accomplished across a wide variety of repertory for the instrument. Demonstrating his great technical. MDYD-168 69. This is a re-recording of George Martin's score for Strawberry Fields Forever; we used The Beatles' original rhythm track as a guide. 46KB) /Stems1/whistle5th. Christopher Gunning returns with recordings of his Violin Concerto, Cello Concerto and Birdflight. Music with tags Cello / Music category provides you with a range of music albums, which you can easily download by clicking on the links at the end of each post. Flower Duet 5. Includes unlimited streaming of Crackle - Six improvisations for Cello and Double Bass via the free Bandcamp app, plus high-quality download in MP3, FLAC and more. 4 – Rachel Podger, Arte Dei Suonatori (2003) [DSF Stereo DSD64/2. 8224 MHz | 49:12 minutes | Basic Scans included | 1,4 GB or FLAC 2. 08 Bad Girl 9. Quality: FLAC 24 bit / 96 kHz (Tracks) + FLAC 16 bit / 44. 4 – Rachel Podger, Arte Dei Suonatori (2003) [DSF Stereo DSD64/2. Luciano Tarantino – Cello Solo Journey (2019)FLAC (tracks) 24-bit/96 kHz | Time – 01:17:28 minutes | 1,35 GB | Genre: ClassicalStudio Masters, Official Digital Download | Digital Booklet, Fro…. Cello Suite No. 20MB) /Stems1/glimmer guit. These pieces present the highest mountain to climb for any cellist, and one of the most transcendent and rewarding experiences for listeners alike. Menuet I / II - 13:41 6. Torrent tracker with best lossless music. Jerk Driver 3. Sol Gabetta - Andante cantabile (Arr. Cello Concerto in D Minor, RV 405/Allegro 04. 3 in C (4) Cello Suite No. 2 by Dmitri Shostakovich (1906 1975). flac 3 min 38 s; 128. Haydn Cello Concertos (Jian Wang, cello) [DG 1999] FLAC. 1 in G major (2) Cello Suite No. 1 Max Rostal – violin, Colin Horsley – piano DELIUS – Sonata for Cello and Piano (1916) Caprice. Sarabande - 9:47 5. 2 in D (1). Bach - Cello Suites (2CD) (Maurice Gendron) [FLAC] torrent download location Download Direct J. cue) Bitrate: Lossless Time: 04:08:45 Size: 1. for Cello & 2 Pianos)05. Ofra Harnoy - Vivaldi: Complete Cello Concertos (4 CD) (2005) [FLAC] Artist: Ofra Harnoy Album: Vivaldi: Complete Cello Concertos Year: 2005 Genre: Classical Codec: FLAC (tracks+. Using BitTorrent is legal, downloading copyrighted material. Torrent tracker with best lossless music. Through its creative arrangements and live video performances, the piano and cello duo has garnered a large following, with over 600,000 YouTube subscribers and over 150 million streams annually on platforms such as Spotify and Pandora Radio. 104 hasn’t been recorded for the yellow label since 2002 (Mischa Maisky with Mehta and Berliner Philharmoniker). Allegro agitato. Matt Haimovitz - Cello Jazz (2020) WEB FLAC (tracks) - 767 Mb | MP3 CBR 320 kbps - 379 Mb | 02:45:15 Jazz | Label: Pentatone Matt Haimovitz’s multi-faceted cello knocks down musical boundaries while scaling emotions from darkness to joy in Cello JAZZ, a wide-ranging playlist featuring some of Haimovitz’s hottest collaborators. Ave Maria 8. Sol Gabetta - Andante cantabile (Arr. 3 in C (4) Cello Suite No. hunta 834 67. 1 in C major, Hob. Alexander Rudin - Hasse, C. Popheart 6. Fiorenza: Cello Concerto in F Major-3. Yo-Yo Mas second recording of Bachs Cello Suites, released in 1997, came about after he heard a quote by Albert Schweitzer describing Bach as a pictorial compos YO-YO MA Cello Suites inspired by Bach FLAC. Classic includes some of the most beloved classical melodies ever written, each a personal, longtime favorite of HAUSER he’s carefully curated and rearranged for the cello. Petersburg under Valery Gergiev also during the Dresden Music Festival 2019. Cover art and liner notes included. Demonstrating his great technical. S-Cute 556 76. 24 Gb + 993 Mb. Mornings 2. Filename:. It is a work in seven movements, and the Prelude, mainly consisting of arpeggiated chords, is probably the best known movement from the entire set of suites and is regularly heard on television and in films. 104 hasn’t been recorded for the yellow label since 2002 (Mischa Maisky with Mehta and Berliner Philharmoniker). 16-bit FLAC; Release Date: 01/19/2018. Bach - Cello Suites (2CD) (Maurice Gendron) [FLAC] could be available for direct download Spónsored Link google. Cello Suite No. Arias for Cello & Piano by Brooklyn Classical, released 08 November 2019 1. Habanera 6. Vedro con Mio Diletto 9. Keith Jarrett - J. Join us today for the ultimate listening experience!. ships out within 4 days Buy Compact Disc $20 AUD or more. The violin is supposed to represent ducking and weaving, rather like the insects and animals found in the Welsh hills and valleys. Cello Multitracks by Gabriel Prokofiev, released 23 May 2011 1. 08 Bad Girl 9. 0 GB platico 6 August 2020 21:24. siro 1903 60. com - торрент трекер c лучшей музыкой в lossless качестве. 11MB) /Stems1/whistle. Dvorak - Cello & Piano Concerto - CPO, Talich [1952] FLAC 04 Concerto for Piano and Orchestra in G minor, op. Propelled into international fame in 2011 after their version of Michael Jackson’s “Smooth Criminal” went viral with 20 million-plus YouTube views, Croatian cellists Luka Sulic and Stjepan Hauser return to their rock roots on their third album, Celloverse. Although composed hard on the heels of the Violin Concerto, it is generally darker though equally expressive. com is a completely virtual record label and a secure online store open 7 days a week, 365 days a year. ly/2Fl9K5L 🎧 Listen to "The Best of Classical Music" on Spotify: http://s. ships out within 1 day Buy Compact Disc £10 GBP or more. 92 Gb Tracklist: 01. 1 in G major (2) Cello Suite No. 06 The Wall Of Death 7. 1, 2, 3 (2013) FLAC 24-96. 0 GB platico 6 August 2020 21:24. Luciano Tarantino – Cello Solo Journey (2019)FLAC (tracks) 24-bit/96 kHz | Time – 01:17:28 minutes | 1,35 GB | Genre: ClassicalStudio Masters, Official Digital Download | Digital Booklet, Fro…. Beethoven: Piano Concerto No. It is a work in seven movements, and the Prelude, mainly consisting of arpeggiated chords, is probably the best known movement from the entire set of suites and is regularly heard on television and in films. Propelled into international fame in 2011 after their version of Michael Jackson’s “Smooth Criminal” went viral with 20 million-plus YouTube views, Croatian cellists Luka Sulic and Stjepan Hauser return to their rock roots on their third album, Celloverse. Keith Jarrett - J. summit of the cello repertoire After her acclaimed PENTATONE debut with Transfigured Night, Alisa Weilerstein returns with a complete recording of Bach’s Cello Suites. com - Available in 96 kHz / 24-bit AIFF, FLAC high resolution audio formats,. com is a completely virtual record label and a secure online store open 7 days a week, 365 days a year. Prelude - 0:00 2. Alexander Warenberg Alexander Warenberg (1998) was born in Voorburg, The Netherlands, into a family of professional musicians. Get our albums: https://smarturl. 04 It's A Lie 5. HEAVY FREAK CELLO by Mr Marcaille, released 06 June 2013 1. Have Your Chance at Love (feat. Steven Isserlis - Sicilienne, Op. These pieces present the highest mountain to climb for any cellist, and one of the most transcendent and rewarding experiences for listeners alike. Artist: Isang Enders Title: Bach: Cello Suites Year Of Release: 2014 Label: Berlin Classics Genre: Classical Quality: mp3 320 kbps / flac lossless / flac 24bits - 96. Suite for Cello Unaccompanied No. Matt Haimovitz - Cello Jazz (2020) WEB FLAC (tracks) - 767 Mb | MP3 CBR 320 kbps - 379 Mb | 02:45:15 Jazz | Label: Pentatone Matt Haimovitz’s multi-faceted cello knocks down musical boundaries while scaling emotions from darkness to joy in Cello JAZZ, a wide-ranging playlist featuring some of Haimovitz’s hottest collaborators. Bach - Suites for Cello Unaccompanied, Complete Artist(s): Daniil Shafran, cello Recording Info: Transferred from a 15ips 2-track tape to DSD128 Recorded by Meloydia. Aufenthalt 5. 32MB) /Stems1/elgtr-dry. Leonard Rose (July 27, 1918 November 16, 1984) is considered one of the greatest American cellists of the 20th century. Seven Summers by Shaun Martin, released 07 July 2015 1. Signed to Sony Masterworks since 2011, they have released five albums and play instrumental arrangements of well-known pop and rock songs as well as classical and film music. ships out within 1 day Buy Compact Disc £10 GBP or more. 03 Free My Line 4. Through its creative arrangements and live video performances, the piano and cello duo has garnered a large following, with over 600,000 YouTube subscribers and over 150 million streams annually on platforms such as Spotify and Pandora Radio. 5 in C minor (2) Cello Suite No. 91MB) /Stems1/tubular bells. Arranged for Maya Beiser by Evan Ziporyn, Bowie Cello Symphonic: Blackstar has been performed to great acclaim in Boston, Barcelona, New York City’s Central Park SummerStage, Austin TX, Palo Alto. Liebesleid04. flac AccurateRip: Accurate (confidence 2) [Pass 1] CRC32: F3110605 AccurateRip CRC: 8DF19EFB (NEW) [DiscID: 021-003587b9-033c1970-40117b15-1] Track 2: Ripped LBA 10620 to 31335 (4:36) in 0:17. The Yellow Jacket 4. The Prayer 30. La Lugubre Gondola 6. Download Weinberg: Cello Sonatas & Berceuse, Op. Prelude - 0:00 2. Bach - Suites for Cello Unaccompanied, Complete Artist(s): Daniil Shafran, cello Recording Info: Transferred from a 15ips 2-track tape to DSD128 Recorded by Meloydia. siro 1903 60. Quality: FLAC 24 bit / 96 kHz (Tracks) Artist: Massimiliano Martinelli Title: Cello Suites Released: 2019 Style: Classical RAR Size: 2. Cello Lifestyle Stainless Steel Flask Cello’s Steel Series is made of thermo seal technology. Bowie Cello Symphonic: Blackstar is a soaring new version of David Bowie’s entire last album Blackstar reimagined for solo cello and orchestra. melody marks 63. Staendchen 4. The duo perform internationally and have been featured on several US TV shows including Glee and The Bachelor. , Rose took lessons from Walter Grossman, Frank Miller and Felix Salmond and after completing his studies at Philadelphia's Curtis Institute of Music at age 20, he joined Arturo Toscanini's NBC Symphony Orchestra, and almost immediately became. Cello Suite No. Cello Concerto in D Minor, RV 405/Allegro 04. Jupiter War 58. Possible 4. Yo-Yo Mas second recording of Bachs Cello Suites, released in 1997, came about after he heard a quote by Albert Schweitzer describing Bach as a pictorial compos YO-YO MA Cello Suites inspired by Bach FLAC. Making its debut today is one of these iconic melodies, Puccini’s incredibly emotional aria “Nessun Dorma,” which has been taken to new heights by HAUSER’s cello. Performing regularly throughout the world as a soloist, chamber musician, recording artist and teacher, British cellist Colin Carr is a frequent guest at the world’s leading concert halls and festivals. Cello Concerto in C Minor, RV 401/Allegro ma non molto 07. Hi-Res FLAC (lossless, 96 kHz, 24 bit) $15. Join us today for the ultimate listening experience!. 4 in E flat major (2) Cello Suite No. 6 MB Genre-Metal Cover Size-1200x1200px Tracklist: CD 1 01 - Enter Sandman 02 - Harmageddon. This free sample is a 1st generation digital transfers from the 15ips analogue master tape – available in 24/192kHz FLAC format. The violin is supposed to represent ducking and weaving, rather like the insects and animals found in the Welsh hills and valleys.